Doctor Who 2005 S09E10 HDTV x264-SERIOUSLY [eztv] | Black Heart White Soul | Super Choque

Movies - Other

Spider-Man Homecoming 2017 Movies HD Cam XviD Clean Audio AAC New Source with Sample ☻rDX☻

  • Download 5x Faster
  • Download torrent
  • Direct Download
  • Rate this torrent +  |  -

Torrent info

Name:Spider-Man Homecoming 2017 Movies HD Cam XviD Clean Audio AAC New Source with Sample ☻rDX☻

Total Size: 704.75 MB

Magnet: Magnet Link

Seeds: 938

Leechers: 170

Stream: Watch Online @ Movie4u

Last Updated: 2017-07-19 03:09:13 (Update Now)

Torrent added: 2017-07-08 09:50:07



VPN For Torrents

Torrent Files List


 

tracker

leech seeds
 

Torrent description

----------------------------------------------------------------
Spider-Man Homecoming 2017 Movies HD Cam XviD Clean Audio AAC New Source with Sample ☻rDX☻

SCREEN SHOTS & POSTER:

http://postimage.co.nr/2017/7/gadget/index.html
http://postimage.co.nr/2017/7/gadget/1.html
http://postimage.co.nr/2017/7/gadget/2.html
http://postimage.co.nr/2017/7/gadget/3.html
http://postimage.co.nr/2017/7/gadget/4.html
http://postimage.co.nr/2017/7/gadget/5.html
http://postimage.co.nr/2017/7/gadget/6.html
http://postimage.co.nr/2017/7/gadget/7.html
http://postimage.co.nr/2017/7/gadget/8.html
http://postimage.co.nr/2017/7/gadget/9.html
http://postimage.co.nr/2017/7/gadget/10.html

File size : 697 MiB
Duration : 2 h 8 min
Overall bit rate mode : Constant
Overall bit rate : 760 kb/s
Movie name : Spider-Man Homecoming 2017 Movies HD Cam XviD Clean Audio AAC New Source ☻rDX☻

Video
ID : 2
Format : AVC
Format/Info : Advanced Video Codec
Format profile : [emailprotected]/* */
Format settings, CABAC : Yes
Format settings, ReFrames : 2 frames
Format settings, GOP : M=1, N=12
Codec ID : V_MPEG4/ISO/AVC
Duration : 2 h 8 min
Bit rate mode : Constant
Bit rate : 665 kb/s
Width : 608 pixels
Height : 256 pixels
Display aspect ratio : 2.40:1
Frame rate mode : Constant
Frame rate : 25.000 FPS
Color space : YUV
Chroma subsampling : 4:2:0
Bit depth : 8 bits
Scan type : Progressive
Bits/(Pixel*Frame) : 0.171
Stream size : 595 MiB (85%)
Title : ☻rDX☻
Language : English
Default : Yes
Forced : No

Audio
ID : 1
Format : MPEG Audio
Format version : Version 2
Format profile : Layer 3
Mode : Joint stereo
Mode extension : MS Stereo
Codec ID : A_MPEG/L3
Codec ID/Hint : MP3
Duration : 2 h 8 min
Bit rate mode : Constant
Bit rate : 96.0 kb/s
Channel(s) : 2 channels
Sampling rate : 22.05 kHz
Compression mode : Lossy
Delay relative to video : 3 ms
Stream size : 88.0 MiB (13%)
Title : ☻rDX☻
Writing library : LAME
Language : English
Default : Yes
Forced : No

related torrents

Torrent name

health leech seeds Size
 


comments (0)

Main Menu